Home > samples > [sample] nxSample139 (Diesel Train on Night)

[sample] nxSample139 (Diesel Train on Night)

[audio http://archive.org/download/nxAudio/nxSample-139.wav]

Name: nxSample-139
Source: Diesel Train on Night.
Recorder: Zoom H2 (Recorder+micro)
Date: 2012.06.19
Location: Barcelona.
Postprocessing: Cut and normalize.
Tags: train, machine, night.
License: cc-by-nc-sa
Soxi Info:
Input File : ‘nxSample-139.wav’
Channels : 2
Sample Rate : 44100
Precision : 16-bit
Duration : 00:00:36.52 = 1610679 samples = 2739.25 CDDA sectors
File Size : 6.44M
Bit Rate : 1.41M
Sample Encoding: 16-bit Signed Integer PCM

Download from archive.org

View and download from freesound

Advertisements
Categories: samples Tags:
  1. No comments yet.
  1. No trackbacks yet.

Leave a Reply

Fill in your details below or click an icon to log in:

WordPress.com Logo

You are commenting using your WordPress.com account. Log Out / Change )

Twitter picture

You are commenting using your Twitter account. Log Out / Change )

Facebook photo

You are commenting using your Facebook account. Log Out / Change )

Google+ photo

You are commenting using your Google+ account. Log Out / Change )

Connecting to %s

%d bloggers like this: